Free Media To Download From Media4play

.: Navigation :.
Suggested Links


Sinners & Saints 2010 720p BRRip x264 AC3 - BTRG
In the gritty New Orleans underbelly, beleaguered Detective Sean Riley is trying to cope with the death of his young son and his failed marriage. Facing a probable suspension from the department, Riley is teamed with a young homicide Detective, Will Ganz, to help solve a series of brutal murders that have plunged the city into a major gang war. The two quickly realize there is something much bigger and far more sinister going on than either could have ever imagined.

User Rating: 6.2/10 6.2/10 (1,037 votes)

Format : Matroska
File size : 2.50 GiB
Duration : 1h 44mn
Overall bit rate : 3 435 Kbps
Encoded date : UTC 2011-06-26 14:17:15
Writing application : mkvmerge v4.8.0 ('I Got The...') built on May 24 2011 03:12:58
Writing library : libebml v1.2.0 + libmatroska v1.1.0

Video
ID : 1
Format : AVC
Format/Info : Advanced Video Codec
Format profile : High@L4.1
Format settings, CABAC : Yes
Format settings, ReFrames : 4 frames
Codec ID : V_MPEG4/ISO/AVC
Duration : 1h 44mn
Bit rate : 2 989 Kbps
Width : 1 280 pixels
Height : 544 pixels
Display aspect ratio : 2.35:1
Frame rate : 23.976 fps
Color space : YUV
Chroma subsampling : 4:2:0
Bit depth : 8 bits
Scan type : Progressive
Bits/(Pixel*Frame) : 0.179
Stream size : 2.12 GiB (85%)
Title : By FiReHD
Writing library : x264 core 115 r1995 c1e60b9
Encoding settings : cabac=1 / ref=3 / deblock=1:0:0 / analyse=0x3:0x113 / me=hex / subme=7 / psy=1 / psy_rd=1.00:0.00 / mixed_ref=1 / me_range=16 / chroma_me=1 / trellis=1 / 8x8dct=1 / cqm=0 / deadzone=21,11 / fast_pskip=1 / chroma_qp_offset=-2 / threads=12 / sliced_threads=0 / nr=0 / decimate=1 / interlaced=0 / bluray_compat=0 / constrained_intra=0 / bframes=3 / b_pyramid=2 / b_adapt=1 / b_bias=0 / direct=1 / weightb=1 / open_gop=1 / weightp=2 / keyint=250 / keyint_min=23 / scenecut=40 / intra_refresh=0 / rc_lookahead=40 / rc=2pass / mbtree=1 / bitrate=2989 / ratetol=1.0 / qcomp=0.60 / qpmin=0 / qpmax=69 / qpstep=4 / cplxblur=20.0 / qblur=0.5 / ip_ratio=1.40 / aq=1:1.00
Language : English

Audio
ID : 2
Format : AC-3
Format/Info : Audio Coding 3
Mode extension : CM (complete main)
Codec ID : A_AC3
Duration : 1h 44mn
Bit rate mode : Constant
Bit rate : 448 Kbps
Channel(s) : 6 channels
Channel positions : Front: L C R, Side: L R, LFE
Sampling rate : 48.0 KHz
Bit depth : 16 bits
Compression mode : Lossy
Stream size : 333 MiB (13%)
Title : By FiReHD
Language : English

Screenshot

Director: William Kaufman
Writers: William Kaufman, Jay Moses

http://lulzimg.com/i23/edea86.png
http://www.wupload.com/file/36312330/Sinners.Saints.2010.720p.BRRip.x264.AC3.BTRG.part1.rar
http://www.wupload.com/file/36312331/Sinners.Saints.2010.720p.BRRip.x264.AC3.BTRG.part2.rar
http://www.wupload.com/file/36312332/Sinners.Saints.2010.720p.BRRip.x264.AC3.BTRG.part3.rar
http://www.wupload.com/file/36312333/Sinners.Saints.2010.720p.BRRip.x264.AC3.BTRG.part4.rar
http://www.wupload.com/file/36312334/Sinners.Saints.2010.720p.BRRip.x264.AC3.BTRG.part5.rar
http://www.wupload.com/file/36312335/Sinners.Saints.2010.720p.BRRip.x264.AC3.BTRG.part6.rar


NO PASS




.

Download related to Sinners & Saints 2010 720p BRRip x264 AC3 - BTRG are available from file hosting sites like uploaded, rapidgator, filefactory, turbobit, uploadrocket, extabit, bitshare etc if you have any legal issue related to Sinners & Saints 2010 720p BRRip x264 AC3 - BTRG links pls feel free to contact us.


Added: (28 June 2011) | Views: 566 | Rating:
 (Votes #: 0)
| Author: Shark_

Related News:

We are strongly against copyrighted content and will not distribute it.Please contact us in such a case and we will take serious action within 2 days.Contact Us
.: Trend :.
Trend
.: Site Info :.
Top Contributors:
  1    creativelivenew 30159
  2    Shark_ 8580
  3    wines 5353
  4    admin 1937
  5    mrsyeoni 370
  6    fasi 17


Articles:
  This Hour: 0
  Today: 0
  This Month: 0
  All Time: 48225


Membership:
  Registered Today :0
  This Hour:0
  This Month:0
  Total:8
  Banned:0