Free Media To Download From Media4play

.: Navigation :.
Suggested Links


B-Xtreme - The Movement
B-Xtreme - The Movement

B-Xtreme - The Movement
DVDRip | AVI / XviD, 5960 kb/s | 720x480 | 00:48:27 | English: MP3, 192 kb/s (2 ch) | 2.09 GB

Make-Tricks C.E.O. Founder of B-Xtreme teaches you the basic calistienics movement while entertaining you with videos of spectacular exercises to build a B-Xtreme body.

MediaInfo:
Format : AVI
Format/Info : Audio Video Interleave
Format profile : OpenDML
File size : 2.09 GiB
Duration : 48mn 26s
Overall bit rate : 6 166 Kbps
Writing application : Lavf52.61.0

Video
ID : 0
Format : MPEG-4 Visual
Format profile : Simple@L3
Format settings, BVOP : No
Format settings, QPel : No
Format settings, GMC : No warppoints
Format settings, Matrix : Default (H.263)
Codec ID : XVID
Codec ID/Hint : XviD
Duration : 48mn 26s
Bit rate : 5 960 Kbps
Width : 720 pixels
Height : 480 pixels
Display aspect ratio : 4:3
Frame rate : 29.970 fps
Standard : NTSC
Color space : YUV
Chroma subsampling : 4:2:0
Bit depth : 8 bits
Scan type : Progressive
Compression mode : Lossy
Bits/(Pixel*Frame) : 0.575
Stream size : 2.02 GiB (97%)
Writing library : XviD 1.2.1 (UTC 2008-12-04)

Audio
ID : 1
Format : MPEG Audio
Format version : Version 1
Format profile : Layer 3
Mode : Joint stereo
Mode extension : MS Stereo
Codec ID : 55
Codec ID/Hint : MP3
Duration : 48mn 26s
Bit rate mode : Constant
Bit rate : 192 Kbps
Channel(s) : 2 channels
Sampling rate : 48.0 KHz
Compression mode : Lossy
Stream size : 66.5 MiB (3%)
Alignment : Aligned on interleaves
Interleave, duration : 24 ms (0.72 video frame)
Interleave, preload duration : 48 ms

Download Links

Filejungle
http://www.filejungle.com/f/sGAWTe/BXtrTheMov.part01.rar
http://www.filejungle.com/f/R4H4QU/BXtrTheMov.part02.rar
http://www.filejungle.com/f/4VuEme/BXtrTheMov.part03.rar
http://www.filejungle.com/f/sgd6YS/BXtrTheMov.part04.rar
http://www.filejungle.com/f/2j8uHj/BXtrTheMov.part05.rar
http://www.filejungle.com/f/nQyh7V/BXtrTheMov.part06.rar
http://www.filejungle.com/f/Q6bKeH/BXtrTheMov.part07.rar
http://www.filejungle.com/f/NNRwQ2/BXtrTheMov.part08.rar
http://www.filejungle.com/f/TEqb5K/BXtrTheMov.part09.rar

Fileserve
http://www.fileserve.com/file/D6j6pFm/BXtrTheMov.part01.rar
http://www.fileserve.com/file/mskHTAB/BXtrTheMov.part02.rar
http://www.fileserve.com/file/jGuBgm4/BXtrTheMov.part03.rar
http://www.fileserve.com/file/KbwH7Xu/BXtrTheMov.part04.rar
http://www.fileserve.com/file/5kRzTxD/BXtrTheMov.part05.rar
http://www.fileserve.com/file/9VJ7rJ3/BXtrTheMov.part06.rar
http://www.fileserve.com/file/5vf858e/BXtrTheMov.part07.rar
http://www.fileserve.com/file/3T5pq7q/BXtrTheMov.part08.rar
http://www.fileserve.com/file/vjbbdmu/BXtrTheMov.part09.rar



Download related to B-Xtreme - The Movement are available from file hosting sites like uploaded, rapidgator, filefactory, turbobit, uploadrocket, extabit, bitshare etc if you have any legal issue related to B-Xtreme - The Movement links pls feel free to contact us.


Added: (6 October 2011) | Views: 683 | Rating:
 (Votes #: 0)
| Author: creativelivenew

Related News:

We are strongly against copyrighted content and will not distribute it.Please contact us in such a case and we will take serious action within 2 days.Contact Us
.: Trend :.
Trend
.: Site Info :.
Top Contributors:
  1    creativelivenew 30159
  2    Shark_ 8580
  3    wines 5353
  4    admin 1937
  5    mrsyeoni 370
  6    fasi 17


Articles:
  This Hour: 0
  Today: 0
  This Month: 0
  All Time: 48225


Membership:
  Registered Today :0
  This Hour:0
  This Month:0
  Total:8
  Banned:0