Free Media To Download From Media4play

.: Navigation :.
Suggested Links


Tucker & Dale vs Evil (2010) DVDRip XviD
http://www.imghaven.com/images/12092/TuckerandDaleEvil%20.jpeg

Tucker & Dale vs Evil (2010) DVDRip XviD
Language: English
88 Min | 1024 x 432 | x264 - 1716Kbps | 23.976fps | AC3 - 448Kbps | 1.37 GB
Genre: Comedy | Horror

Two lovable West Virginian hillbillies, are headed to their "fixer-upper" vacation cabin to drink some beer, do some fishin', and have a good time. But when they run into a group of preppy college kids who assume from their looks that they must be in-bred, chainsaw wielding killers, Tucker & Dale's vacation takes a bloody & hilarious turn for the worse.

Video
ID : 0
Format : MPEG-4 Visual
Format profile : Advanced Simple@L5
Format settings, BVOP : Yes
Format settings, QPel : No
Format settings, GMC : No warppoints
Format settings, Matrix : Default (H.263)
Muxing mode : Packed bitstream
Codec ID : XVID
Codec ID/Hint : XviD
Duration : 1h 24mn
Bit rate : 1 995 Kbps
Width : 720 pixels
Height : 320 pixels
Display aspect ratio : 2.25:1
Frame rate : 25.000 fps
Color space : YUV
Chroma subsampling : 4:2:0
Bit depth : 8 bits
Scan type : Progressive
Bits/(Pixel*Frame) : 0.346
Stream size : 1.18 GiB (81%)
Writing library : XviD 62

Audio
ID : 1
Format : AC-3
Format/Info : Audio Coding 3
Mode extension : CM (complete main)
Codec ID : 2000
Duration : 1h 24mn
Bit rate mode : Constant
Bit rate : 448 Kbps
Channel(s) : 6 channels
Channel positions : Front: L C R, Side: L R, LFE
Sampling rate : 48.0 KHz
Bit depth : 16 bits
Stream size : 272 MiB (18%)
Alignment : Split accross interleaves
Interleave, duration : 64 ms (1.60 video frames)
Interleave, preload duration : 500 ms

Download :


http://www.filesonic.com/file/3095206645/Tucker.and.Dale.vs.Evil.2010.DVDRip.XviD.part1.rar
http://www.filesonic.com/file/3095206655/Tucker.and.Dale.vs.Evil.2010.DVDRip.XviD.part2.rar
http://www.filesonic.com/file/3095206665/Tucker.and.Dale.vs.Evil.2010.DVDRip.XviD.part3.rar


Or


http://www.wupload.com/file/1933770747/Tucker.and.Dale.vs.Evil.2010.DVDRip.XviD.part1.rar
http://www.wupload.com/file/1933770752/Tucker.and.Dale.vs.Evil.2010.DVDRip.XviD.part2.rar
http://www.wupload.com/file/1933770757/Tucker.and.Dale.vs.Evil.2010.DVDRip.XviD.part3.rar
 
No Password.


Download related to Tucker & Dale vs Evil (2010) DVDRip XviD are available from file hosting sites like uploaded, rapidgator, filefactory, turbobit, uploadrocket, extabit, bitshare etc if you have any legal issue related to Tucker & Dale vs Evil (2010) DVDRip XviD links pls feel free to contact us.


Added: (6 November 2011) | Views: 512 | Rating:
 (Votes #: 0)
| Author: Shark_

Related News:

We are strongly against copyrighted content and will not distribute it.Please contact us in such a case and we will take serious action within 2 days.Contact Us
.: Trend :.
Trend
.: Site Info :.
Top Contributors:
  1    creativelivenew 30159
  2    Shark_ 8580
  3    wines 5353
  4    admin 1937
  5    mrsyeoni 370
  6    fasi 17


Articles:
  This Hour: 0
  Today: 0
  This Month: 0
  All Time: 48225


Membership:
  Registered Today :0
  This Hour:0
  This Month:0
  Total:8
  Banned:0