Free Media To Download From Media4play

.: Navigation :.
Suggested Links

Bending The Rules 2012 DVDRiP Xvid-M4S
Bending The Rules 2012 DVDRiP Xvid-BHRG

Bending The Rules 2012 DVDRiP Xvid-BHRG | 700 MB
File size: 700 MiB
Duration: 1h 23mn
Overall bit rate: 1 170 Kbps

ID: 0
Format: MPEG-4 Visual
Format profile: Advanced Simple@L5
Format settings, BVOP: 2
Format settings, QPel: No
Format settings, GMC: No warppoints
Format settings, Matrix: Default (H.263)
Codec ID: XVID
Codec ID/Hint: XviD
Duration: 1h 23mn
Bit rate: 1 036 Kbps
Width: 624 pixels
Height: 336 pixels
Display aspect ratio: 1.857
Frame rate: 23.976 fps
Color space: YUV
Chroma subsampling: 4:2:0
Bit depth: 8 bits
Scan type: Progressive
Compression mode: Lossy
Bits/(Pixel*Frame): 0.206
Stream size: 620 MiB (89%)
Writing library: XviD 1.2.1 (UTC 2008-12-04)

ID: 1
Format: MPEG Audio
Format version: Version 1
Format profile: Layer 3
Mode: Joint stereo
Mode extension: MS Stereo
Codec ID: 55
Codec ID/Hint: MP3
Duration: 1h 23mn
Bit rate mode: Constant
Bit rate: 128 Kbps
Channel(s): 2 channels
Sampling rate: 48.0 KHz
Compression mode: Lossy
Stream size: 76.5 MiB (11%)
Alignment: Aligned on interleaves
Interleave, duration: 167 ms (4.00 video frames)
Interleave, preload duration: 216 ms
Title: VTS_01_1 T80 3_2ch 448Kbps DELAY 0ms
Writing library: LAME3.99r
Encoding settings: -m j -V 4 -q 2 -lowpass 17 -b 128

A district attorney is determined to take down a corrupt New Orleans cop

Extabit The Rules 2012 DVDRiP Xvid-BHRG.rar

Uploaded The Rules 2012 DVDRiP Xvid-BHRG.rar

Download related to Bending The Rules 2012 DVDRiP Xvid-M4S are available from file hosting sites like uploaded, rapidgator, filefactory, turbobit, uploadrocket, extabit, bitshare etc if you have any legal issue related to Bending The Rules 2012 DVDRiP Xvid-M4S links pls feel free to contact us.

Added: (7 April 2012) | Views: 626 | Rating:
 (Votes #: 0)
| Author: admin

Related News:

We are strongly against copyrighted content and will not distribute it.Please contact us in such a case and we will take serious action within 2 days.Contact Us
.: Trend :.
.: Site Info :.
Top Contributors:
  1    creativelivenew 30159
  2    Shark_ 8580
  3    wines 5353
  4    admin 1937
  5    mrsyeoni 370
  6    fasi 17

  This Hour: 0
  Today: 0
  This Month: 346
  All Time: 48178

  Registered Today :0
  This Hour:0
  This Month:0