Free Media To Download From Media4play

.: Navigation :.
Suggested Links


Bad Ass 2012 VODRiP AC3-2.0 XviD-SiC

Bad Ass 2012 VODRiP AC3-2 0 XviD-SiC
Bad Ass 2012 VODRiP AC3-2 0 XviD-SiC | 1.35 GB
IMDB Link:
http://www.imdb.com/title/tt1928330/



Description:
A Vietnam veteran who becomes a local hero after saving a man from attackers on a city bus decides to take action when his best friend is murdered and the police show little interest in solving the crime.

MediaInfo:
General
Complete name : Bad.Ass.2012.VODRiP.AC3-2.0.XviD-SiC.avi
Format : AVI
Format/Info : Audio Video Interleave
File size : 1.33 GiB
Duration : 1h 30mn
Overall bit rate : 2 118 Kbps

Video
ID : 0
Format : MPEG-4 Visual
Format profile : Advanced Simple@L5
Format settings, BVOP : 2
Format settings, QPel : No
Format settings, GMC : No warppoints
Format settings, Matrix : Default (H.263)
Muxing mode : Packed bitstream
Codec ID : XVID
Codec ID/Hint : XviD
Duration : 1h 30mn
Bit rate : 1 854 Kbps
Width : 720 pixels
Height : 400 pixels
Display aspect ratio : 16:9
Frame rate : 23.976 fps
Color space : YUV
Chroma subsampling : 4:2:0
Bit depth : 8 bits
Scan type : Progressive
Compression mode : Lossy
Bits/(Pixel*Frame) : 0.269
Stream size : 1.17 GiB (88%)
Writing library : XviD 1.1.2 (UTC 2006-11-01)

Audio
ID : 1
Format : AC-3
Format/Info : Audio Coding 3
Mode extension : CM (complete main)
Codec ID : 2000
Duration : 1h 30mn
Bit rate mode : Constant
Bit rate : 256 Kbps
Channel(s) : 2 channels
Channel positions : Front: L R
Sampling rate : 48.0 KHz
Bit depth : 16 bits
Compression mode : Lossy
Stream size : 165 MiB (12%)
Alignment : Aligned on interleaves
Interleave, duration : 64 ms (1.53 video frames)
Interleave, preload duration : 192 ms
Title : badass

DOWNLOAD LINK:

http://extabit.com/file/2dvlcl9v4qg91/Bad.Ass.2012.VODRiP.AC3-2.0.XviD-SiC.avi

Download related to Bad Ass 2012 VODRiP AC3-2.0 XviD-SiC are available from file hosting sites like uploaded, rapidgator, filefactory, turbobit, uploadrocket, extabit, bitshare etc if you have any legal issue related to Bad Ass 2012 VODRiP AC3-2.0 XviD-SiC links pls feel free to contact us.


Added: (17 April 2012) | Views: 488 | Rating:
 (Votes #: 0)
| Author: Shark_

Related News:

We are strongly against copyrighted content and will not distribute it.Please contact us in such a case and we will take serious action within 2 days.Contact Us
.: Trend :.
Trend
.: Site Info :.
Top Contributors:
  1    creativelivenew 30159
  2    Shark_ 8580
  3    wines 5353
  4    admin 1937
  5    mrsyeoni 370
  6    fasi 17


Articles:
  This Hour: 0
  Today: 0
  This Month: 0
  All Time: 48224


Membership:
  Registered Today :0
  This Hour:0
  This Month:0
  Total:8
  Banned:0