Free Media To Download From Media4play

.: Navigation :.
Suggested Links


Underworld Awakening 2012 DvDRip RHINO
Underworld Awakening 2012 DVDRIP RHINO

Underworld Awakening 2012 DvDRip RHINO
Size:
700 MB


Genre
Action, Fantasy, Horror
Actors
Kate Beckinsale, Michael Ealy, India Eisley
Plot
When human forces discover the existence of the Vampire and Lycan clans, a war to eradicate both species commences. The vampire warrioress Selene leads the battle against humankind.
Format : AVI
Format/Info : Audio Video Interleave
File size : 701 MiB
Duration : 1h 28mn
Overal bit rate : 1106 Kbps
Movie name : Underworld Awakening 2012 BRRip XViD-sC0rp
Director : TEAM | sC0rp | Releases
Writing application : VirtualDub build 32842/releaseVirtualDubMod 1.5.10.3 | www.virtualdub-fr.org || (build 2550/release)

Video
Format : MPEG-4 Visual
Format profile : Streaming Video@L1
Format settings, BVOP : Yes
Format settings, QPel : No
Format settings, GMC : No warppoints
Format settings, Matrix : Custom
Muxing mode : Packet Bitstream
Codec ID : XVID
Codec ID/Hint : XviD
Duration : 1h 28mn
Bit rate : 969 Kbps
Width : 640 pixels
Height : 272 pixels
Display aspect ratio : 2.35
Frame rate : 23.976 fps
Resolution : 8 bits
Colorimetry : 4:2:0
Scan type : Progressive
Bits/(Pixel*Frame) : 0.232
Stream size : 614 MiB
Writing library : XviD 58

Audio
Format : MPEG Audio
Format version : Version 1
Format profile : Layer 3
Codec ID : 55
Codec ID/Hint : MP3
Duration : 1h 28mn
Bit rate mode : Constant
Bit rate : 128 Kbps
Channel(s) : 2 channels
Sampling rate : 44.1 KHz
Resolution : 16 bits
Stream size : 81.1 MiB
Writing library : LAME3.99.3
Language : undefined

DOWNLOAD:

( Extabit )
http://extabit.com/file/2dubm7o5g870t/Underworld Awakening  {2012} DVDRIP RHINO.rar



Download related to Underworld Awakening 2012 DvDRip RHINO are available from file hosting sites like uploaded, rapidgator, filefactory, turbobit, uploadrocket, extabit, bitshare etc if you have any legal issue related to Underworld Awakening 2012 DvDRip RHINO links pls feel free to contact us.


Added: (17 September 2012) | Views: 695 | Rating:
 (Votes #: 1)
| Author: Shark_

Related News:

We are strongly against copyrighted content and will not distribute it.Please contact us in such a case and we will take serious action within 2 days.Contact Us
.: Trend :.
Trend
.: Site Info :.
Top Contributors:
  1    creativelivenew 30159
  2    Shark_ 8580
  3    wines 5353
  4    admin 1937
  5    mrsyeoni 370
  6    fasi 17


Articles:
  This Hour: 0
  Today: 0
  This Month: 0
  All Time: 48225


Membership:
  Registered Today :0
  This Hour:0
  This Month:0
  Total:8
  Banned:0